Download the App!

show episodes
 
Hosted by DJ 3X Dex. The curator of music for the bougie, ratchets and in between. Every Friday, DJ 3X Dex provides you with mixes that are fresh, raw and unedited. Suitable for at home, a party, in the car, during your workout, wherever you choose fit. www.dj3xdex.com #4PlayFridays
 
The best NEW rockabilly music alongside the greatest rockin' records of all time! Join Motorbilly Radio's DJ Del Villarreal for a lively blend of 1950's styled rock'n'roll, hillbilly bop, country boogie, western swing, raucous RnB, desperate garage & twangy hot rod music in each week's radio programs: hear exclusive LIVE interviews with the artists & organizers in our world-wide rockin' scene! "Good to the last BOP!™" Requests? Email: del@motorbilly.com
 
Are you addicted to collecting records? Do you have black wax coursing through your veins? Has your vinyl dependance gotten out of control? Amassing 45s has become an obsession? This podcast will help you get you through until your next fix. Do our hosts Ben Shulman and Patrick Foisy offer a cure? No they don't. In fact, they are afflicted by the same sweet disease. Get ready for a fresh new podcast to hit your data stream. When analog clashes into the digital world! Addicted To The Needle - ...
 
R
Rock's Backpages

1
Rock's Backpages

Mark Pringle, Barney Hoskyns, Jasper Murison-Bowie

Unsubscribe
Unsubscribe
Monthly+
 
They were so much older then, they're younger than that now: Mark Pringle and Barney Hoskyns reel in the years and riff on all that's new this week in the world's biggest library of music journalism — definitive interviews with legends of the last 60 years by the pop press' greatest writers ... and much much more. The RBP podcast is produced by Jasper Murison-Bowie and is a proud part of Pantheon — the podcast network for music lovers.
 
- THE BEST SHIT YOU NEVER HEARD - NEW EPISODE EVERY THURSDAY TO KEEP YOU NICE AND THICC - ADVERTISING, BOOKINGS, INQUIRIES, ETC: contact@thunderstonelabs.com OR DM US ON TWITTER OR IG - TASTEMAKING GENRES: RAP, HOUSE, FUTURE BAILE, FUTURE FUNK, CLUB MUSIC, BAY RAP, WORLD MUSIC, FUTURE BEATS/GALACTIC SOUNDS, TRAPSOUL/RNB
 
The UK based weekly internet radio show on Starpoint Radio - bringing you the very best in new release independent soul, contemporary gospel, RnB, vocal soulful house and jazzy grooves. On air since 2009, the show is presented by DJ Paul Goldsmith and broadcasts every Thursday between 7pm and 9pm UK time.
 
The musical mix you didn't know you needed! Join Daisy as she plays a variety of hot trax and sensitive bangers that are sure to heat up your day! From indie rock to RNB deep cuts to your favorite local talent - Hot Trax is here to give you that little something extra to brighten up your day. Sponsored by the Hexagon Board Game Café
 
We play anything (Indie, rnb, electronic, blues, jazz, world, folk, rock, etc.) that we think is innovative, out of the ordinary and really interesting and that you just don't get to hear anywhere else. Latest playlists include Art School Girlfriend, Loma, Tuvaband ...
 
Music producer and recording engineer Dame Diddy sits down with Co Host Ambitious Ace to review everything Hip Hop, RnB, and Urban music. Sit back and listen to us weekly discuss grades for albums from artist like Rihanna, J. Cole, Beyoncé, Kanye West, and many more. Listen to us keep it real about everyones favorite artist as you discover new artist as well.
 
A
Aural Fixation

1
Aural Fixation

Andy Gott and Drew Tweddle

Unsubscribe
Unsubscribe
Monthly+
 
Aural Fixation is a fortnightly queer music podcast that explores LGBTQI+ themes in music and pop culture. Released fortnightly on Thursdays, each installment follows besties Drew and Andy as they discuss an album that is loved by queer people, made by queer artists, or speaks to queer experiences. British expats living and recording in Sydney, Drew and Andy bring a uniquely cross-genre and cross-hemispheric viewpoint to being gay and loving music, shared perhaps only by the Minogue sisters. ...
 
Loading …
show series
 
PERFORMER "tonka" TITLE "21:35" FILE "1stop1-20-22.mp3" MP3 TRACK 01 AUDIO TITLE "Yeah 5x" PERFORMER "Starlito" INDEX 01 00:00:00 TRACK 02 AUDIO TITLE "Proud" PERFORMER "Paper Route Empire & Key Glock" INDEX 01 02:23:00 TRACK 03 AUDIO TITLE "Talented" PERFORMER "Skooly" INDEX 01 04:10:00 TRACK 04 AUDIO TITLE "murda one" PERFORMER "Roddy Ricch feat.…
 
From the album "( 50 cent Get Rich Or Die Trying Revisted)". Out now! Follow BILLINS WORLD: https://www.instagram.com/topbillin520/?hl=en https://twitter.com/billinsworld?s=21 https://hitmylineaccessories.com/.. #BILLINSWORLD#GetRichOrDieTrying#50cent Official music video by BILLINS WORLD - Get Rich Or Die Trying Revisted EPISODE ©2021 AIRTIMEMUSIC…
 
DRTYBSMNT RADIO AKA DRTYBSMNT UNIVERSITY THE UNPARELLED LEADER IN INTERNET RADIO. TUNE IN EVERY SATURDAY AT 5PM EST FOR THE HOTTEST NEW MUSIC, SPECIAL GUESTS AND THE REALEST TALK. HAVE YOUR PAPER AND A SHARPENED #2 PENCIL READY FOR YOUR MUSIC BUSINESS EDUCATION! YOU NEVER KNOW WHAT SURPRISE "LECTURER" MIGHT DROP IN! FOLLOW @ORIGINAL_DRTYBSMNT ON TW…
 
103. Pushing the boundries of roots rock n' roll to the breaking point! Explore the incredible world wide rockin' scene with the Aztec Werewolf, DJ Del Villarreal and his Tuesday nite free-form 50's extravaganza, "Go Kat, GO! The Rock-A-Billy Show!" Hear NEW music from Theo Lawrence, The Mellows, Uke Can't Keep A Good Man Down, The Atomic Papas, Th…
 
The Groove Association feat. Georgie B - Best Believe It Bey Bright - More Than Friends [Soul Nostalgia 4] Don-E - Follow Your Heart [Winter Warmers EP] TJ Taotua - You And I [Overdue] Miz Ricks - Love You More Marcus Valentine - True Love Lindsey Webster feat. Brian Culbertson - I Didn't Mean It Kelvin Evans feat. Lynita Renea - Spend The Night Ta…
 
Here is an update on the podcast letting y'all know what's happening. Thank you all for the 6 years of support! New YouTube Channel R.O.S.E. The Culture https://www.youtube.com/channel/UCIe5ddP1qzwo2G7DLZe32_Q UPlay2Much Gaming https://www.youtube.com/channel/UCiT9qyj8cwReviCbMHxCnRw/videos Noire Est Belle Clothing Twitter R.O.S.E. The Culture @ish…
 
Fresh and Vintage - Global and Local. Music and Commentary focusing on the best in independent and underground HipHop/Jazz/R'n'B/Beats/Soul/Funk/House and all else. Broadcasting out of Melbourne/Naarm, Australia. Track-listing Posted Over at Our Instagram Every Week! IG https://www.instagram.com/keystothecityradio/ Get in touch, Shout Outs & Promos…
 
Hour One Cashma - Body Love Jvck James - Love In The Club N'Front - Love Like This [Back To The Core Vol. 1] Kye - Good Company [Good Company EP] Herb Middleton - Over & Over [Every Day Is A Holiday] Nikkole - Don't Change (The Way You Are) [Vulnerable] Kenny Lattimore - What Are You Waiting For [Here To Stay] Lauren Hashian - What You Want (Deja V…
 
This episode doesn't have one, but two record dealers to contend with. Bargains are flying left and right! Our special guest Félix B. Desfossés is not only an author, a radio personality and an endless fountain of musical knowledge but he's also a record collector like no other. Northern Soul, RnB, Garage, British Freakbeat and Power Pop are all up…
 
We're coming up so you better get this party started! Aural Fixation's eighth cycle wraps up with a good old fashioned Drew and Andy romp, and this time, it's Missundaztood by the one and only P!nk. Some of the queer topics we cover around and amongst Alecia Moore's iconic sophomore outing include Shirley Bassey's Marks & Spencer adverts, "Get the …
 
104. Cruising with Alt-Country Ameripolitan star Geoffrey Miller down Highway 101 this evening! A special show this evening as we invite Mr. Miller in from Sacramento, CA for an exclusive LIVE interview with the Aztec Werewolf! Enjoy some twangy roots-country selections from Geoffrey Miller's upcoming LP "Leavin' 101" plus a few of his hand-selecte…
 
Kool & The Gang - Steppin' Into Love [Still Kool] (2007) Gene Rice - Ready 2 Luv U [G3] (2018) Pookie Lane - Baby Girl [Southern Woman] (2007) Shelley Gaines - Saved [The Gift] (2000) Teena Marie - Baby I Love You [Congo Square] (2009) The Tim Terry Experience - The One [The Tim Terry Experience] (2004) Alvin Garrett - Never Gonna Change [Expose Yo…
 
In this episode we welcome the legendary Pete Wingfield to Hammersmith to discuss his career as a keyboard player, record producer and music journalist. We start by asking Pete about Soulbeat, the fanzine he started at Wellington College, and about the network of R&B fans in mid-'60s Britain. From there we learn about Mike Vernon's Blue Horizon lab…
 
Hi All, heres the podcast of my first 'In The Groove' show of 2022, featuring new music from Julia Logue, Dovie Cote, Robert Crawford, Moonchild, Luka Ft Sio, Wez Whynt Ft Hannah Khemoh, Miz Ricks and 2 tracks from the ace new Kyoto Jazz Massive album , plus vintage grooves by Charles Veal, Alexander Hope, The James Family, T.S. Monk and Big Moses …
 
101. Cause you deserve to hear only the VERY BEST in rockin' sounds! Welcome the 2nd show of the year -our big BEST OF 2021 rockabilly review! Over 3 hours of the finest retro-roots-rock recordings from the past 12 months (plus a few bonus NEW RELEASE exclusives LIKE The Sirocco Bros., Geoffrey Miller, Shanda & The Howlers & J.P. McDermott & Wester…
 
#LLJ$ PERFORMER "Jay" TITLE "20:47" FILE "222 (1).mp3" MP3 TRACK 01 AUDIO TITLE "I See It" PERFORMER "Jay $lim" INDEX 01 00:00:00 TRACK 02 AUDIO TITLE "Meexh" PERFORMER "Mali Meexh" INDEX 01 03:19:00 TRACK 03 AUDIO TITLE "Dope Boy" PERFORMER "Papa Duck" INDEX 01 04:42:00 TRACK 04 AUDIO TITLE "Bag Talk" PERFORMER "Renni Rucci" INDEX 01 06:16:00 TRAC…
 
From the album "( 2014 Forrest Hills Drive CLASSIC OR TRAGIC)". Out now! Follow BILLINS WORLD: https://www.instagram.com/topbillin520/?hl=en https://twitter.com/billinsworld?s=21 https://hitmylineaccessories.com/.. #BILLINSWORLD#2014Forresthillsdrive#J.Cole Official music video by BILLINS WORLD - 2014 Forrest Hills Drive CLASSIC OR TRAGIC EPISODE ©…
 
DRTYBSMNT RADIO AKA DRTYBSMNT UNIVERSITY THE UNPARELLED LEADER IN INTERNET RADIO. TUNE IN EVERY SATURDAY AT 5PM EST FOR THE HOTTEST NEW MUSIC, SPECIAL GUESTS AND THE REALEST TALK. HAVE YOUR PAPER AND A SHARPENED #2 PENCIL READY FOR YOUR MUSIC BUSINESS EDUCATION! YOU NEVER KNOW WHAT SURPRISE "LECTURER" MIGHT DROP IN! FOLLOW @ORIGINAL_DRTYBSMNT ON TW…
 
Abi Farrell - Don't Follow Me Jenna Bennett - Rhythm Of You Mandee - Never Stop TJ Taotua - You And I [Overdue] Jaszy Shavers - Dark [Red Light] Tica Holiday - A Little Lit (A Little Bit) The Headliner feat. Terell O'Neal & Sherita Murphy - Coming II You [The Big Deal] Kenny Lattimore - Nothing On You [Here To Stay] Sandra-Mae Lux - You Me And Tomo…
 
Vybez4Life Podcast Ep.68 with 84 Hip Hop, RnB, Afrobeats, Reggae Dancehall tracks from artists like Polo G, Future, Tyga, Wiz Khalifa, Mary J Blige, Jacquess, Lil Tjay, Fivio Foreign, Abra Cadabra, Poundz, LD, Tion Wayne, Morrison, Mist, NSG, Burna Boy, Fireboy DML, Chronic Law, Spice, Tishana, Sunshine Velvet, Ginjah, Richie Spice, Luciano, Sycure…
 
100. Hey! First episode of 2022 and we're lookin' forward to lookin' backwards! Tune in for a rockin' retro-spective of the previous 12 months as we stack 'em high and MAKE 'EM FLY -AT 45 RPMS! Hear 2021's BEST slabs of 7" vinyl spun on DJ Del Villarreal's "Go Kat, GO! The Rock-A-Billy Show!" 2 turntables = no waiting! Plenty of the coolest cuts fr…
 
Loading …

Quick Reference Guide

Copyright 2022 | Sitemap | Privacy Policy | Terms of Service
Google login Twitter login Classic login