Best djhenrymir podcasts we could find (Updated September 2017)
Related podcasts: Henrymir Henry Tribal Miranda Djhenry Housemusic Dance Mix Dj House Progressive Music  
Djhenrymir public [search 0]
show episodes
 
H
Henry Mir-House Music Podcast
Rare
 
House/Dance/Tribal/Progressive
 
Loading …
show series
 
H
Henry Mir-House Music Podcast
 
# Track Title Artist1 Real Love (Clean) (Extended)-LA Riots & Great Good Fine Ok2 Untangled (Clean) (Extended)-Bolier & Redondo ft Dana Sipos3 Live Stream (Clean) (Extended)-Mark Knight, Green Velvet & Rene Amesz4 The Drums (Din Daa Daa) (Clean) (Extended)-Claptone ft George Kranz5 Patchy (Dirty) (Extended)-Shakecraft ft Elektra6 You Don't Know ...…
 
H
Henry Mir-House Music Podcast
 
Henry Mir - MMW WMC 2017 MixEelke Kleijn - Home (Clean) (Extended)DJ Who ft Triciq - Good Times (Clean) (Extended)Eden Prince - Senorita (Clean) (Extended)Alesso - Falling (Clean) (Extended)Sunnery James, Ryan Marciano, & Clara Mae - The One That Got Away (Clean) (Extended)3 Monkeyzz - Curious Girl (Clean) (Extended)Frankey & Sandrino - Pollux ...…
 
H
Henry Mir-House Music Podcast
 
Hello fellow listeners. I end this year with 2 new mixes. They are a review of my favorite tracks of this 2016 year. Enjoy!PERFORMER "numixradio" TRACK 01 AUDIO TITLE "Minuit (Clean) (Extended)" PERFORMER "Several Definitions" INDEX 01 00:00:00 TRACK 02 AUDIO TITLE "Stranger (Clean) (Extended)" PERFORMER "Chris Lake" INDEX 01 04:10:00 TRACK 03 ...…
 
H
Henry Mir-House Music Podcast
 
Hello fellow listeners. I end this year with 2 new mixes. They are a review of my favorite tracks of this 2016 year. Enjoy! TRACK 01 AUDIO TITLE "Need You (Clean) (Extended)" PERFORMER "Dillon Francis & NGHTMRE" INDEX 01 00:00:00 TRACK 02 AUDIO TITLE "Never Be Like You (Disclosure Remix) (Clean) (Extended)" PERFORMER "Flume ft Kai" INDEX 01 03: ...…
 
Speed
Series preference
1x
1x
Volume
100%
/

Google login Twitter login Classic login