Best henrymir podcasts we could find (Updated August 2017)
Related podcasts: Society Henry Djhenrymir Tribal Miranda Djhenry Housemusic Dance Mix Dj House US Government Progressive News History Music Education  
Henrymir public [search 0]
show episodes
 
H
Henry Mir-House Music Podcast
Rare
 
House/Dance/Tribal/Progressive
 
I
IBEW Henry Miller Museum
Daily+
 
Finding ways to share the oral history of the IBEW through the contributions of our members!
 
T
The Brave Exchange I Blogging I Business I Creativity I Mindset I Lifestyle
 
Advice from top influencers, creators and experts on using your voice to change the world, like Lisa Messenger, Laurence Tham, Tara Bliss, Carren Smith, Tom Cronin, Todd Henry + more.
 
T
TV Talk - Once Upon a Time
Monthly+
 
TV Talk – Once Upon a Time . TV Talk Network is America’s Largest Producer of Podcast Content. Delivering Talk Shows daily about your favorite TV programs via the FREE TV Talk App to your smartphone or tablet every morning. TV Talk – Once Upon a Time Featuring Hosts Rebecca Jones / Gareth Jones. Starring: Lana Parrilla, Evil Queen/Regina Mills, Ginnifer Goodwin, Snow White/Mary Margaret Blanchard, Jennifer Morrison, Emma Swan, Meghan Ory, Red Riding Hood / Ruby, Emilie de Ravin, Belle, Jared ...
 
W
Westwood One's Veterans Day Series
 
A series of 11 reports, each 1:00 minute long, about the men and women who make up the U. S. veteran population. Including perspectives from national leaders and veterans of widely varying ages, the pieces will look into how veterans view their service and the day set aside to honor it. Reports will examine health, education and readjustment issues impacting veterans - and provide listeners ways they can show concern for those who've worn their nation's uniform - by making Veterans Day not j ...
 
Loading …
show series
 
H
Henry Mir-House Music Podcast
 
# Track Title Artist1 Real Love (Clean) (Extended)-LA Riots & Great Good Fine Ok2 Untangled (Clean) (Extended)-Bolier & Redondo ft Dana Sipos3 Live Stream (Clean) (Extended)-Mark Knight, Green Velvet & Rene Amesz4 The Drums (Din Daa Daa) (Clean) (Extended)-Claptone ft George Kranz5 Patchy (Dirty) (Extended)-Shakecraft ft Elektra6 You Don't Know ...…
 
H
Henry Mir-House Music Podcast
 
Henry Mir - MMW WMC 2017 MixEelke Kleijn - Home (Clean) (Extended)DJ Who ft Triciq - Good Times (Clean) (Extended)Eden Prince - Senorita (Clean) (Extended)Alesso - Falling (Clean) (Extended)Sunnery James, Ryan Marciano, & Clara Mae - The One That Got Away (Clean) (Extended)3 Monkeyzz - Curious Girl (Clean) (Extended)Frankey & Sandrino - Pollux ...…
 
H
Henry Mir-House Music Podcast
 
Hello fellow listeners. I end this year with 2 new mixes. They are a review of my favorite tracks of this 2016 year. Enjoy!PERFORMER "numixradio" TRACK 01 AUDIO TITLE "Minuit (Clean) (Extended)" PERFORMER "Several Definitions" INDEX 01 00:00:00 TRACK 02 AUDIO TITLE "Stranger (Clean) (Extended)" PERFORMER "Chris Lake" INDEX 01 04:10:00 TRACK 03 ...…
 
H
Henry Mir-House Music Podcast
 
Hello fellow listeners. I end this year with 2 new mixes. They are a review of my favorite tracks of this 2016 year. Enjoy! TRACK 01 AUDIO TITLE "Need You (Clean) (Extended)" PERFORMER "Dillon Francis & NGHTMRE" INDEX 01 00:00:00 TRACK 02 AUDIO TITLE "Never Be Like You (Disclosure Remix) (Clean) (Extended)" PERFORMER "Flume ft Kai" INDEX 01 03: ...…
 
Speed
Series preference
1x
1x
Volume
100%
/

Google login Twitter login Classic login