show episodes
 
//ALL INCLUDED ELECTRONIC RADIOSHOW & PODCAST// jay.me is a born and based DJ from Barcelona, Spain. Roster member of MOAI Ecosystem DJ Platform. If you like electronic music, not just a genre, this is your show. Every 15 days be ready for 30 minutes of Techno, Tech House, Deep Tech, Melodic Techno, Downtempo, ... Electronic Music. Hope you have fun. Contact & Bookings: mailto.jay.me@gmail.com
 
This is a radio show with a focus on the PMP Exam, coaching on process groups, knowledge areas, ITTOs, Agile, Scrum and a lot more! The PMP exam is one of the most popular certifications and the most popular and controversial project management certifications in the world! Phill is the Principal at Praizion.com, a project management and leadership firm. He has over 2 decades of corporate management experience. He is passionate about leadership, agile, predictive and hybrid methods. This show ...
 
With a broad selection of veterans and new talents, Felix will deliver 60 Minutes of nothing but straight Techno to your soundsystem, every week from now on! "I've been receiving so many mails and requests from international fans of my show, that it was just the natural step. Becoming a part of the global techno movement feels great!" Felix said.
 
DJ Peretse - the best speedmixer and megamix-maker of Russia , resident "Record" National Dance Radio, official DJ of the Alfa Future People, FIFA World Cup 2018, and the Olympic Games 2014, producer of the radioshow Record Megamix and WakeUp Mix, EDM producer.
 
SUPERASIS INDAHOUSE Presents "SONIDOS DEL UNIVERSO RADIOSHOW" RADIO NEW YORK CLUB desde el Centro de Manhattan, Nueva York / #RadioNYClub Empire State Building Studios- LIVESTREAMING - en Unika.fm Madrid España & App: unika fm live - Broadcast: *Martes (22:00-00:00 horas) (UTC/GMT +1) -EDICION EN ESPAÑOL- TECHNO & RAVE + FUTURE DANCE// THE BEST ELECTRONIC DANCE MUSIC FROM THE NYC UNDERGROUND////FUTURE RAVE + DISCO POWER FOR CLUBBINGS & RAVERS///// NUEVAS TENDENCIAS/ VANGUARDIA ELECTRONICA DA ...
 
Here’s some editions of my funky breaks radioshow, Bootlegs & B-Sides. This is where you'll find only the tastiest remixes, covering everything from ghetto funk, breakbeats, glitch hop, hip-hop, bass, electro swing, chill, soul, reggae, drum & bass, house, other miscellaneous gems and pumping them out across the airwaves.
 
Nujazzsoul is an internet radioshow hosted by Francisco Coelho. Every month you will listen to two hours of eclectic music in real radio style with a microphone, for some live comments, curious record stories and extra information. From the shows, expect to listen jazz, house, breakbeat, reggae, disco, techno, ambient, soul, exotica, brokenbeats, library, electronica, latin, etc, and to hopefully join the dots between the past, present and future of music. There's also the blog section to ch ...
 
A podcast powered by Red Points, the fastest-growing brand protection company in the world, and hosted by Daniel Shapiro. The show follows the stories of anti-counterfeiting and brand protection leaders from well-known companies all over the globe. For more information, check out our website at redpoints.com/podcast Hosted on Acast. See acast.com/privacy for more information.
 
My shows are different. In The Dark Stars, I introduce artists from the Gothic scene, not only music, but also books. In my show Tatort Radio, I introduce you to a deceased artist every month, how he lived, how he became successful and how he died. On this show, no artist died of natural causes. In the show De Jack Express, I present songs in Dutch. The genre is different. All my programs are broadcast live on various internet radio stations and as podcasts. My live times: The Dark Stars : 8 ...
 
Sveiki, čia Audrius Bačiulis ir Algis Ramanauskas Mes būsime labai dėkingi jei remsite mus Patreon: https://www.patreon.com/baciulisirramanauskas Facebook: https://www.facebook.com/Ba%C4%8Diulis-ir-Ramanauskas-261379194566105/?modal=admin_todo_tour Radioshow ir SSG platinami čia: https://www.youtube.com/user/whatlooksrightisrigh/videos
 
Loading …
show series
 
PODCAST SDU552- VANGUARDIA TECHNO RAVE + FUTURE DANCE ///THE BEST ELECTRONIC DANCE MUSIC FROM NYC UNDERGROUND ALL OVER THE WORLD.- -SUPERASIS INDAHOUSE Presents "SONIDOS DEL UNIVERSO RADIOSHOW" SDU550 from RADIO NEW YORK CLUB desde el Centro de Manhattan, Nueva York / EPISODIO 552 Broadcast 24.01.23 EDICION EN ESPAÑOL #RadioNYClub Empire State Buil…
 
Playlist 148: Purple Disco Machine - Wake Up (Extended) Ferreck Dawn feat. Izzy Bizu - Life Extended Mix) Kevin McKay, Eppers, Notelle - On My Own (Extended Mix) Murmur Tooth & Lars Moston - Antidote (Extended Mix) Bob Sinclar feat. Steve Edwards - World Hold On (FISHER Rework) Michael Calfan - Eighteen (Extended Mix) Robin Schulz feat. Mougleta - …
 
Obsessions radio show podcast is a weekly 1 hour music mix presented by dj and producer Agent Greg. Expect nothing but pure House music. Choose your preferred listening platform - http://ssyncc.com/agentgreg-obsessions LINKTREE: https://linktr.ee/djagentgreg INSTAGRAM: http://www.instagram.com/djagentgreg FACEBOOK: http://www.facebook.com/djagentgr…
 
Hey guys, here is the DEEP WOODS radio show with your favourite tracks! If you like it give it a "heart <3" and "repost" Enjoy! Free DL on iTunes: apple.co/3QL8tEU→ Tracklist: bit.ly/SubscribePrettyPink (description of the video)→ iTunes Podcast: bit.ly/pp_pod→ Spotify Playlist: bit.ly/dw_pl→ Youtube: bit.ly/pp_dwyt✓ Facebook: fb.com/prettypinkmusi…
 
January’s Steyoyoke Radio Show arises with the help of Germán Case. Heavily associated with productions that consistently carry fresh forward thinking sounds, Germán shares with us some of the latest tracks from their current collection. Featuring a host of exceptional tracks from artists such as Nick Devon, Browncoat, Soul Button and including a b…
 
Best Discohouse and Clubgrooves by Disco Dice 2hours live on Air on Radio MDR Sputnik (Germany) DISCO DICE / Dj Team - Germany www.discodice.de Mgmt: Marco Benitz bkng: www.dnrg-mgmt.de mobil: +49 177 2504210 bookings: marco@dnrg-mgmt.de Instagram: https://www.instagram.com/discodicedj Facebook: https://www.facebook.com/discodicedj Bandcamp: https:…
 
Thanks for listening to my radio show! Best, Felix 01. Felix Kröcher - Ignition / We Are The Night 02. DJ Dextro - Polished Zoom / Naked Lunch 03. Marco Bailey - North West / Materia 04. The Advent & Flug - Midnight Storm (RAW Mix) / Existentia 05. Danny Broda - Blaze / PHOBIA Music Recordings 06. Felix Kröcher - Dimension / We Are The Night 07. Zi…
 
TRACK 01 AUDIO TITLE "Opener" PERFORMER "Oliver K" INDEX 01 00:01:55 TRACK 02 AUDIO TITLE "The Dark Stars" PERFORMER "Intro 2022" INDEX 01 00:27:27 TRACK 03 AUDIO TITLE "Innocence Lost (Decay Extended Mix)" PERFORMER "BlakLight" INDEX 01 01:52:36 TRACK 04 AUDIO TITLE "Last In The Club (Album Version)" PERFORMER "Buzz Kull" INDEX 01 09:54:60 TRACK 0…
 
Fundamental Radioshow by Hosse. Follow me on socials at: Instagram: instagram.com/hossemusic Facebook: facebook.com/hossemusic Soundcloud: @hossemusic Youtube: youtube.com/hossemusic Spotify: open.spotify.com/artist/0CFmmdduV…-oQaatZoMnoR-ZQA SP: Cada semana comparto contigo todas las novedades musicales de mi maleta, moviéndome desde el Deep-tech …
 
ALL INCLUDED ELECTRONIC RADIOSHOW & PODCASTWelcome to ALL INCLUDED. Every 15 days a new session mixed live in my studio. Deep house,Deep Tech,Melodic Techno,Progressive house, Tech House, Techno ... Electronic Music.Hope you like it and enjoy it. Thank you for following and listening. Have fun!!This radio show is also available on Apple Podcasts or…
 
00:00 Interdiction de l’alcool dans les cantines - INA - Youtube - 1956 00:22 The Brain - Générique - Unreleased - 2016 00:50 Yma Sumac - Chuncho - Capitol Records - 1955 04:23 Alexis Lumière - Casio Love - ERR REC - 2023 08:58 Altin Gün - Leylim Ley - Self released - 2022 13:09 Tentative - Pile Pâle - Kwaidan Records - 2020 15:47 Nadjma - Taal (Co…
 
1.- S&m P&g&nini - R&ve (Ad&m Beyer & L&yon Giord&ni Remix) Drumcode records2.- K&iserdisco - The D&rk Knight (Origin&l Mix) KD R&w3.- Heerhorst, Teen&ge Mut&nts - PPT (Origin&l Mix) Termin&l4.- Yves Grey - Control (Origin&l Mix) Techno f&mily5.- S&m P&g&nini, Zøe - Fl&sh (Wehbb& Remix) J&m6.- PAGANO - P&nt& Rhei (Christi&n Smith's Filtered Mix)Tro…
 
The 117th episode of I AM HARDSTYLE Radio, presented by Brennan Heart and co-hosted by Toneshifterz. Special guests of the month: BIOWEAPON! Tracklist: 0:00:00 | I AM HARDSTYLE Radio Intro 0:00:54 | Coone & Robert Falcon - All Of The Lights 0:04:38 | Dimitri Vegas & Like Mike x Bassjackers - Happy Together (Toneshifterz Remix) 0:07:31 | Sound Rush …
 
Empowerment4ALL with Yulander McTier--Mid Day Prayer and Discussion Time Welcome to Empowerment4ALL. I am your host and creator Yulander McTier. Happy New Year 2023! I am back on Blog Talk Radio to jump start new episodes. I will be hosting Monday, Wednesday and Friday's Mid Day Prayer Time and Discussions. This is geared to empower, encourage, upl…
 
Tracklist: 01. Dennis Cartier, Erick T - The Ocean 02. ASTRO x Lumberjack - Ocean 03. Melsen & Amanda Wilson - Every Single Time (I Look At You) 04. Dennis Cartier - Passion (Your Dreams) (Club Mix) 05. VALMAR - I Need A Miracle 06. Tony Cortez (feat. Orito Cantora) - La Negra 07. HUGEL, Crusy, Jenn Morel feat. Joelii - KLK 08. Fabian Hernandez DFH…
 
Welcome to Empowerment4ALL. I am your host and creator Yulander McTier. Happy New Year 2023! I am back on Blog Talk Radio to jump start new episodes. I will be hosting Monday, Wednesday and Friday's Mid Day Prayer Time and Discussions. This is geared to empower, encourage, uplift to inlcude when it comes up discussions to take place. I welcome live…
 
01. Alok & James Arthur - Work With My Love 02. Ilkay Sencan - Dirty Thoughts 03. DANK & Tom Nash - My Heart In Pieces 04. Kx5 feat. The Moth And The Flame - Alive (KREAM Remix) 05. Nightlapse & Raphaella - Hide & Seek 06. Tony Romera & Asdek feat. Karina Ramage - All I Know 07. Öwnboss, Watzgood & Zuffo - Papapo 08. Hollaphonic - Keep Up 09. Dimit…
 
Tracklist: 1. Abel Ramos + Robbie Rivera - Aracaju Vibes 2. Saints & Heroes - Joan of Arc 3. Dimitri Vegas - The White Lotus Theme 4. David Novacek, Juan Galvis,ALD4NA - El Baile (Abel Ramos Extended Mix) 5. Eden Prince - Take It To The Rhythm 6. Okward - Senorita (Diego Antoine Remix) 7. R Rivera Grooves - Super Magnetic 8. Discoplex - Armonia 9. …
 
PODCAST SDU551- VANGUARDIA TECHNO RAVE + FUTURE DANCE ///THE BEST ELECTRONIC DANCE MUSIC FROM NYC UNDERGROUND ALL OVER THE WORLD.- -SUPERASIS INDAHOUSE Presents "SONIDOS DEL UNIVERSO RADIOSHOW" SDU550 from RADIO NEW YORK CLUB desde el Centro de Manhattan, Nueva York / EPISODIO 551 Broadcast 17.01.23 EDICION EN ESPAÑOL #RadioNYClub Empire State Buil…
 
1.Dubdogz, Zuffo & Rhoden – Mission Impossible2.Tiësto, Ava Max – The Motto3.Minelli – Could Be Something4.Tiesto – The Business (Dj Kapral Remix)5.Lost Culture Feat. Morfi & Carine – Lean On6.Alan Walker, Alok Feat. Imanbek – Sweet Dreams7.Twocolors – Heavy Metal Love8.Tove Lo, Denis First – How Long9.Fisher – Losing It10.Alan Walker, A$Ap Rocky, …
 
Vargu ar kada nors buvo taip detalliai išaiškinta tarptautinė ir vidaus laikjuostė, tiek prieš Sukilimą, tiek ir po. Remdami mus Patreon matysite PILNUS epizodus ir laidas, taip pat turėsite priėjimą prie labai didelio archyvo. Ačiū. Patreon: https://www.patreon.com/baciulisirramanauskas Mes būsime labai dėkingi jei pranešite miestui ir pasauliui a…
 
01 – The Sacred Souls – Trade Of Hearts (Penrose)02 – Ron Preyer & The Soul Surfers – Moonlight Daydream (Industry Music Group)03 – Qur’an Shaheed – Thrive (BBE)04 – Ari Lennox – POF (Dreamville)05 – Your Old Droog & Tha God Fahim – Wall St. With Briefcase (Nature Sounds)06 – YUNGMORPHEUS – Head Above The Water (Lex)07 – John Carroll Kirby – Capazi…
 
Welcome back to the Heroes of Brand Protection. A podcast powered by Red Points, the fastest-growing brand protection company in the world, and hosted by Daniel Shapiro. The show follows the stories of anti-counterfeiting and brand protection leaders from well-known companies and organizations all over the globe. Today we are thrilled to be speakin…
 
TRACKLIST LAND OF DANCE MIXed BY STEF T #714 w03 01. RIKO & GUGGA, Creek - Clocks and Coasts (Extended Mix) [Enormous Chills] 02. DubDogz & Bruno Be & Ghostt ft. The Chain Gang of 1974 - Sleepwalking (Extended Mix) [Spinnin' Records] 03. Sebastian Haas & Lanna M - Endless Nights (Original Mix) [Area Verde] 04. Julian Jordan - The Bass (Extended Mix…
 
Hey guys, here is the DEEP WOODS radio show with your favourite tracks! If you like it give it a "heart <3" and "repost" Enjoy! Free DL on iTunes: apple.co/3QL8tEU→ Tracklist: bit.ly/SubscribePrettyPink (description of the video)→ iTunes Podcast: bit.ly/pp_pod→ Spotify Playlist: bit.ly/dw_pl→ Youtube: bit.ly/pp_dwyt✓ Facebook: fb.com/prettypinkmusi…
 
Obsessions radio show podcast is a weekly 1 hour music mix presented by dj and producer Agent Greg. Expect nothing but pure House music. Choose your preferred listening platform - http://ssyncc.com/agentgreg-obsessions LINKTREE: https://linktr.ee/djagentgreg INSTAGRAM: http://www.instagram.com/djagentgreg FACEBOOK: http://www.facebook.com/djagentgr…
 
Tracklist: 01. Skrillex, Fred Again.. & Flowdan - Rumble (Owen Norton & Navos Edit) 02. Alok & James Arthur - Work With My Love 03. Melsen & Amanda Wilson - Every Single Time (I Look At You) 04. Ariana Grande & Zedd - Break Free (Bust-R Remix) 05. Dennis Cartier - Passion (Your Dreams) (Club Mix) 06. DJ Kuba & Neitan x Bounce Inc. - Work My Body 07…
 
01. Topic x HRVY - All Or Nothing 02. Crunkz feat. Amanda Collis - Sad At You 03. Tiesto - Lay Low 04. ACRAZE feat. Goodboys - Believe (Galantis Remix) 05. Nora Van Elken - September (Club Mix) 06. Alok x Sigala x Ellie Goulding - All By Myself (Ilkay Sencan Remix) 07. HÄWK. - Meet Me 08. DJ Snake x Wade feat. Nooran Sister - Guddi Riddim 09. Edson…
 
Thanks for listening to my radio show! Best, Felix 01. York - On The Beach (Eli Brown Extended Remix) / Kontor Records GmbH 02. Jay Lumen - Venus / Footwork 03. Gregor Tresher - Quiet Distortion (Bart Skils Remix) / Break New Soil Rec 04. Lowerzone - Disco / JAM 05. Sofian - Root Cause / Tronic 06. Danny Broda - Blaze / PHOBIA Music Recordings 07. …
 
TRACK 01 AUDIO TITLE "Tatort Titelmusik" PERFORMER "Klaus Doldinger" INDEX 01 00:02:15 TRACK 02 AUDIO TITLE "Happy Xmas (War Is Over) (Remastered 2010)" PERFORMER "John Lennon" INDEX 01 05:35:64 TRACK 03 AUDIO TITLE "Ich hätte es wissen sollen (I Should Have Known)" PERFORMER "The Beatles Revival Band" INDEX 01 09:04:22 TRACK 04 AUDIO TITLE "Yellow…
 
Tribute to Elvis Presley und Falco FILE "OliverK-2022-11-24-18-00-05.mp3" MP3 TRACK 01 AUDIO TITLE "Tatort Titelmusik" PERFORMER "Klaus Doldinger" INDEX 01 00:02:25 TRACK 02 AUDIO TITLE "In the Ghetto (World Turns Remix) (feat. Nardo Wick)" PERFORMER "Elvis Presley" INDEX 01 04:32:45 TRACK 03 AUDIO TITLE "Blue Suede Shoes" PERFORMER "Helloween" IND…
 
TRACK 01 AUDIO TITLE "Thema aus "Tatort"" PERFORMER "The Starlite Orchestra" INDEX 01 00:03:04 TRACK 02 AUDIO TITLE "Thriller (Steve Aoki Midnight Hour Remix)" PERFORMER "Michael Jackson" INDEX 01 03:19:45 TRACK 03 AUDIO TITLE "ABC" PERFORMER "Jackson 5" INDEX 01 10:53:27 TRACK 04 AUDIO TITLE "Rock with You" PERFORMER "Doug Pinnick" INDEX 01 14:36:…
 
Loading …

Quick Reference Guide

Copyright 2023 | Sitemap | Privacy Policy | Terms of Service
Google login Twitter login Classic login